osu file format v14

[General]
AudioFilename: fo.mp3
AudioLeadIn: 1500
PreviewTime: 53647
Countdown: 0
SampleSet: Soft
StackLeniency: 0.7
Mode: 3
LetterboxInBreaks: 0
WidescreenStoryboard: 1

[Editor]
DistanceSpacing: 1.1
BeatDivisor: 4
GridSize: 4
TimelineZoom: 1.6

[Metadata]
Title:SOUND VOLTEX KAC2013 Collection
TitleUnicode:SOUND VOLTEX KAC2013 Collection
Artist:Various Artists
ArtistUnicode:Various Artists
Creator:_FrEsH_ChICkEn_
Version:For UltraPlayers
Source:SOUND VOLTEX II -infinite infection-
Tags:ke-ji Ayatsugu_Otowa Hommarju BlackYooh vs. siromaru かめりあ Camellia cosMo@暴走P cosMo@Bousou-P
BeatmapID:725851
BeatmapSetID:326977

[Difficulty]
HPDrainRate:8
CircleSize:4
OverallDifficulty:8
ApproachRate:5
SliderMultiplier:1.4
SliderTickRate:1

[Events]
//Background and Video events
0,0,"fo.png",0,0
//Break Periods
//Storyboard Layer 0 (Background)
//Storyboard Layer 1 (Fail)
//Storyboard Layer 2 (Pass)
//Storyboard Layer 3 (Foreground)
//Storyboard Sound Samples

[TimingPoints]
1185,298.507462686567,4,2,0,20,1,0

[HitObjects]
192,192,1185,5,0,0:0:0:0:
448,192,1185,1,0,0:0:0:0:
320,192,1185,1,0,0:0:0:0:
192,192,1334,1,0,0:0:0:0:
448,192,1334,1,0,0:0:0:0:
64,192,1483,1,0,0:0:0:0:
192,192,1558,1,0,0:0:0:0:
320,192,1632,1,0,0:0:0:0:
448,192,1707,1,0,0:0:0:0:
320,192,1782,1,0,0:0:0:0:
64,192,1782,1,0,0:0:0:0:
192,192,1782,1,0,0:0:0:0:
320,192,1931,1,0,0:0:0:0:
64,192,1931,1,0,0:0:0:0:
448,192,2080,1,0,0:0:0:0:
320,192,2155,1,0,0:0:0:0:
192,192,2229,1,0,0:0:0:0:
64,192,2304,1,0,0:0:0:0:
192,192,2379,1,0,0:0:0:0:
448,192,2379,1,0,0:0:0:0:
320,192,2379,1,0,0:0:0:0:
192,192,2528,1,0,0:0:0:0:
448,192,2528,1,0,0:0:0:0:
64,192,2677,1,0,0:0:0:0:
192,192,2752,1,0,0:0:0:0:
320,192,2826,1,0,0:0:0:0:
448,192,2901,1,0,0:0:0:0:
320,192,2976,1,0,0:0:0:0:
64,192,2976,1,0,0:0:0:0:
192,192,2976,1,0,0:0:0:0:
320,192,3125,1,0,0:0:0:0:
64,192,3125,1,0,0:0:0:0:
448,192,3274,1,0,0:0:0:0:
320,192,3349,1,0,0:0:0:0:
192,192,3423,1,0,0:0:0:0:
64,192,3498,1,0,0:0:0:0:
320,192,3573,1,0,0:0:0:0:
448,192,3573,1,0,0:0:0:0:
192,192,3573,1,0,0:0:0:0:
320,192,3722,1,0,0:0:0:0:
448,192,3722,1,0,0:0:0:0:
192,192,3871,1,0,0:0:0:0:
320,192,3946,1,0,0:0:0:0:
192,192,4020,1,0,0:0:0:0:
320,192,4095,1,0,0:0:0:0:
192,192,4170,1,0,0:0:0:0:
64,192,4170,1,0,0:0:0:0:
448,192,4170,1,0,0:0:0:0:
192,192,4319,1,0,0:0:0:0:
64,192,4319,1,0,0:0:0:0:
320,192,4468,1,0,0:0:0:0:
192,192,4543,1,0,0:0:0:0:
320,192,4617,1,0,0:0:0:0:
192,192,4692,1,0,0:0:0:0:
448,192,4767,1,0,0:0:0:0:
64,192,4767,1,0,0:0:0:0:
320,192,4767,1,0,0:0:0:0:
448,192,4916,1,0,0:0:0:0:
64,192,4916,1,0,0:0:0:0:
64,192,5065,128,0,5662:0:0:0:0:
192,192,5065,1,0,0:0:0:0:
448,192,5065,1,0,0:0:0:0:
320,192,5140,1,0,0:0:0:0:
192,192,5214,1,0,0:0:0:0:
320,192,5289,1,0,0:0:0:0:
192,192,5364,1,0,0:0:0:0:
448,192,5364,1,0,0:0:0:0:
192,192,5513,1,0,0:0:0:0:
448,192,5513,1,0,0:0:0:0:
448,192,5662,1,0,0:0:0:0:
320,192,5737,1,0,0:0:0:0:
192,192,5811,1,0,0:0:0:0:
64,192,5886,1,0,0:0:0:0:
192,192,5961,128,0,8050:0:0:0:0:
320,192,5961,1,0,0:0:0:0:
320,192,6110,1,0,0:0:0:0:
64,192,6259,1,0,0:0:0:0:
448,192,6334,1,0,0:0:0:0:
64,192,6408,1,0,0:0:0:0:
448,192,6483,1,0,0:0:0:0:
320,192,6558,1,0,0:0:0:0:
320,192,6707,1,0,0:0:0:0:
448,192,6856,1,0,0:0:0:0:
64,192,6931,1,0,0:0:0:0:
448,192,7005,1,0,0:0:0:0:
64,192,7080,1,0,0:0:0:0:
320,192,7155,1,0,0:0:0:0:
320,192,7304,1,0,0:0:0:0:
64,192,7453,1,0,0:0:0:0:
448,192,7528,1,0,0:0:0:0:
64,192,7602,1,0,0:0:0:0:
448,192,7677,1,0,0:0:0:0:
320,192,7752,1,0,0:0:0:0:
320,192,7901,1,0,0:0:0:0:
64,192,8050,1,0,0:0:0:0:
448,192,8125,1,0,0:0:0:0:
64,192,8199,1,0,0:0:0:0:
320,192,8274,1,0,0:0:0:0:
448,192,8349,1,0,0:0:0:0:
192,192,8349,1,0,0:0:0:0:
64,192,8349,128,0,8946:0:0:0:0:
320,192,8423,1,0,0:0:0:0:
192,192,8498,1,0,0:0:0:0:
192,192,8647,1,0,0:0:0:0:
448,192,8647,1,0,0:0:0:0:
320,192,8722,1,0,0:0:0:0:
448,192,8796,1,0,0:0:0:0:
320,192,8946,1,0,0:0:0:0:
192,192,8946,1,0,0:0:0:0:
448,192,8946,128,0,9543:0:0:0:0:
64,192,9020,1,0,0:0:0:0:
192,192,9095,1,0,0:0:0:0:
64,192,9244,1,0,0:0:0:0:
320,192,9244,1,0,0:0:0:0:
192,192,9319,1,0,0:0:0:0:
320,192,9393,1,0,0:0:0:0:
192,192,9543,128,0,10140:0:0:0:0:
64,192,9543,1,0,0:0:0:0:
320,192,9543,1,0,0:0:0:0:
448,192,9617,1,0,0:0:0:0:
320,192,9692,1,0,0:0:0:0:
320,192,9841,1,0,0:0:0:0:
448,192,9841,1,0,0:0:0:0:
64,192,9916,1,0,0:0:0:0:
320,192,9990,1,0,0:0:0:0:
64,192,10140,128,0,10737:0:0:0:0:
448,192,10140,1,0,0:0:0:0:
320,192,10140,1,0,0:0:0:0:
192,192,10214,1,0,0:0:0:0:
320,192,10289,1,0,0:0:0:0:
448,192,10438,1,0,0:0:0:0:
192,192,10438,1,0,0:0:0:0:
320,192,10513,1,0,0:0:0:0:
192,192,10587,1,0,0:0:0:0:
448,192,10737,1,0,0:0:0:0:
320,192,10811,1,0,0:0:0:0:
192,192,10886,1,0,0:0:0:0:
64,192,10961,1,0,0:0:0:0:
448,192,11035,1,0,0:0:0:0:
320,192,11110,1,0,0:0:0:0:
192,192,11184,1,0,0:0:0:0:
64,192,11259,1,0,0:0:0:0:
448,192,11334,1,0,0:0:0:0:
320,192,11408,1,0,0:0:0:0:
192,192,11483,1,0,0:0:0:0:
64,192,11558,1,0,0:0:0:0:
448,192,11632,1,0,0:0:0:0:
320,192,11707,1,0,0:0:0:0:
192,192,11782,1,0,0:0:0:0:
64,192,11856,1,0,0:0:0:0:
64,192,11931,1,0,0:0:0:0:
192,192,12005,1,0,0:0:0:0:
320,192,12080,1,0,0:0:0:0:
448,192,12155,1,0,0:0:0:0:
64,192,12229,1,0,0:0:0:0:
192,192,12304,1,0,0:0:0:0:
320,192,12379,1,0,0:0:0:0:
448,192,12453,1,0,0:0:0:0:
64,192,12528,1,0,0:0:0:0:
192,192,12602,1,0,0:0:0:0:
320,192,12677,1,0,0:0:0:0:
448,192,12752,1,0,0:0:0:0:
64,192,12826,1,0,0:0:0:0:
192,192,12901,1,0,0:0:0:0:
320,192,12976,1,0,0:0:0:0:
448,192,13050,1,0,0:0:0:0:
320,192,13125,1,0,0:0:0:0:
64,192,13125,1,0,0:0:0:0:
192,192,13274,1,0,0:0:0:0:
448,192,13274,1,0,0:0:0:0:
320,192,13423,1,0,0:0:0:0:
192,192,13423,1,0,0:0:0:0:
64,192,13573,1,0,0:0:0:0:
448,192,13573,1,0,0:0:0:0:
320,192,13722,1,0,0:0:0:0:
64,192,13722,1,0,0:0:0:0:
320,192,13871,1,0,0:0:0:0:
64,192,13871,1,0,0:0:0:0:
192,192,14020,1,0,0:0:0:0:
448,192,14020,1,0,0:0:0:0:
320,192,14170,1,0,0:0:0:0:
64,192,14170,1,0,0:0:0:0:
192,192,14319,1,0,0:0:0:0:
320,192,14319,1,0,0:0:0:0:
448,192,14468,1,0,0:0:0:0:
192,192,14468,1,0,0:0:0:0:
320,192,14617,1,0,0:0:0:0:
64,192,14617,1,0,0:0:0:0:
320,192,14767,1,0,0:0:0:0:
64,192,14767,1,0,0:0:0:0:
192,192,14916,128,0,15513:0:0:0:0:
448,192,14916,1,0,0:0:0:0:
64,192,15065,1,0,0:0:0:0:
448,192,15214,1,0,0:0:0:0:
64,192,15364,1,0,0:0:0:0:
320,192,15513,1,0,0:0:0:0:
448,192,15513,1,0,0:0:0:0:
64,192,15662,1,0,0:0:0:0:
320,192,15737,1,0,0:0:0:0:
192,192,15811,1,0,0:0:0:0:
448,192,15811,1,0,0:0:0:0:
320,192,15961,1,0,0:0:0:0:
64,192,15961,1,0,0:0:0:0:
192,192,16110,1,0,0:0:0:0:
320,192,16110,1,0,0:0:0:0:
448,192,16259,1,0,0:0:0:0:
192,192,16259,1,0,0:0:0:0:
320,192,16408,1,0,0:0:0:0:
192,192,16408,1,0,0:0:0:0:
64,192,16483,1,0,0:0:0:0:
192,192,16558,1,0,0:0:0:0:
320,192,16632,1,0,0:0:0:0:
64,192,16707,1,0,0:0:0:0:
448,192,16707,1,0,0:0:0:0:
192,192,16806,1,0,0:0:0:0:
64,192,16906,1,0,0:0:0:0:
448,192,17005,1,0,0:0:0:0:
192,192,17005,1,0,0:0:0:0:
320,192,17105,1,0,0:0:0:0:
448,192,17204,1,0,0:0:0:0:
64,192,17304,1,0,0:0:0:0:
320,192,17304,1,0,0:0:0:0:
192,192,17403,1,0,0:0:0:0:
64,192,17503,1,0,0:0:0:0:
448,192,17602,1,0,0:0:0:0:
192,192,17602,1,0,0:0:0:0:
320,192,17702,1,0,0:0:0:0:
448,192,17801,1,0,0:0:0:0:
192,192,17901,1,0,0:0:0:0:
64,192,17901,1,0,0:0:0:0:
448,192,18050,1,0,0:0:0:0:
192,192,18050,1,0,0:0:0:0:
320,192,18199,1,0,0:0:0:0:
64,192,18199,1,0,0:0:0:0:
192,192,18349,1,0,0:0:0:0:
448,192,18349,1,0,0:0:0:0:
320,192,18498,1,0,0:0:0:0:
192,192,18498,1,0,0:0:0:0:
320,192,18647,1,0,0:0:0:0:
64,192,18647,1,0,0:0:0:0:
192,192,18796,1,0,0:0:0:0:
448,192,18796,1,0,0:0:0:0:
320,192,18946,1,0,0:0:0:0:
64,192,18946,1,0,0:0:0:0:
192,192,19095,128,0,19393:0:0:0:0:
320,192,19393,1,0,0:0:0:0:
448,192,19393,128,0,19841:0:0:0:0:
320,192,19841,1,0,0:0:0:0:
192,192,19916,1,0,0:0:0:0:
64,192,19990,1,0,0:0:0:0:
64,192,20289,1,0,0:0:0:0:
320,192,20289,1,0,0:0:0:0:
192,192,20438,1,0,0:0:0:0:
448,192,20438,1,0,0:0:0:0:
320,192,20587,1,0,0:0:0:0:
192,192,20587,1,0,0:0:0:0:
320,192,20737,1,0,0:0:0:0:
64,192,20737,1,0,0:0:0:0:
64,192,20886,1,0,0:0:0:0:
192,192,20886,1,0,0:0:0:0:
192,192,21035,1,0,0:0:0:0:
320,192,21035,1,0,0:0:0:0:
320,192,21184,1,0,0:0:0:0:
448,192,21184,1,0,0:0:0:0:
192,192,21334,1,0,0:0:0:0:
64,192,21334,1,0,0:0:0:0:
320,192,21483,1,0,0:0:0:0:
448,192,21483,1,0,0:0:0:0:
64,192,21483,128,0,22677:0:0:0:0:
320,192,21632,1,0,0:0:0:0:
448,192,21632,1,0,0:0:0:0:
320,192,21782,1,0,0:0:0:0:
448,192,21782,1,0,0:0:0:0:
320,192,21931,1,0,0:0:0:0:
448,192,21931,1,0,0:0:0:0:
192,192,22080,1,0,0:0:0:0:
320,192,22180,1,0,0:0:0:0:
448,192,22279,1,0,0:0:0:0:
192,192,22379,1,0,0:0:0:0:
320,192,22478,1,0,0:0:0:0:
448,192,22578,1,0,0:0:0:0:
192,192,22677,128,0,22976:0:0:0:0:
320,192,22677,1,0,0:0:0:0:
448,192,22826,1,0,0:0:0:0:
448,192,22976,128,0,23274:0:0:0:0:
320,192,22976,1,0,0:0:0:0:
192,192,23125,1,0,0:0:0:0:
64,192,23274,128,0,23573:0:0:0:0:
192,192,23274,1,0,0:0:0:0:
448,192,23423,1,0,0:0:0:0:
320,192,23573,128,0,23871:0:0:0:0:
448,192,23573,1,0,0:0:0:0:
64,192,23722,1,0,0:0:0:0:
64,192,23871,128,0,24170:0:0:0:0:
192,192,23871,1,0,0:0:0:0:
320,192,24020,1,0,0:0:0:0:
192,192,24170,128,0,24468:0:0:0:0:
448,192,24170,1,0,0:0:0:0:
320,192,24319,1,0,0:0:0:0:
320,192,24468,128,0,24767:0:0:0:0:
448,192,24468,1,0,0:0:0:0:
64,192,24617,1,0,0:0:0:0:
448,192,24767,128,0,25065:0:0:0:0:
192,192,24767,1,0,0:0:0:0:
64,192,24841,1,0,0:0:0:0:
192,192,24916,1,0,0:0:0:0:
320,192,24990,1,0,0:0:0:0:
192,192,25065,128,0,25364:0:0:0:0:
64,192,25065,1,0,0:0:0:0:
448,192,25214,1,0,0:0:0:0:
448,192,25364,128,0,25662:0:0:0:0:
64,192,25364,1,0,0:0:0:0:
64,192,25513,1,0,0:0:0:0:
64,192,25662,128,0,25961:0:0:0:0:
320,192,25662,1,0,0:0:0:0:
320,192,25811,1,0,0:0:0:0:
192,192,25961,1,0,0:0:0:0:
448,192,26060,1,0,0:0:0:0:
320,192,26160,1,0,0:0:0:0:
64,192,26259,1,0,0:0:0:0:
448,192,26259,1,0,0:0:0:0:
192,192,26359,1,0,0:0:0:0:
320,192,26458,1,0,0:0:0:0:
448,192,26558,1,0,0:0:0:0:
64,192,26558,1,0,0:0:0:0:
320,192,26657,1,0,0:0:0:0:
192,192,26757,1,0,0:0:0:0:
64,192,26856,1,0,0:0:0:0:
448,192,26856,1,0,0:0:0:0:
192,192,26956,1,0,0:0:0:0:
320,192,27055,1,0,0:0:0:0:
448,192,27155,1,0,0:0:0:0:
192,192,27155,1,0,0:0:0:0:
320,192,27254,1,0,0:0:0:0:
64,192,27254,1,0,0:0:0:0:
192,192,27354,1,0,0:0:0:0:
448,192,27354,1,0,0:0:0:0:
320,192,27453,128,0,27752:0:0:0:0:
64,192,27453,1,0,0:0:0:0:
448,192,27453,1,0,0:0:0:0:
192,192,27602,1,0,0:0:0:0:
64,192,27752,128,0,28050:0:0:0:0:
192,192,27752,1,0,0:0:0:0:
448,192,27901,1,0,0:0:0:0:
320,192,28050,128,0,28349:0:0:0:0:
192,192,28050,1,0,0:0:0:0:
64,192,28199,1,0,0:0:0:0:
192,192,28349,128,0,28647:0:0:0:0:
448,192,28349,1,0,0:0:0:0:
320,192,28498,1,0,0:0:0:0:
448,192,28647,128,0,28946:0:0:0:0:
64,192,28647,1,0,0:0:0:0:
192,192,28946,128,0,29393:0:0:0:0:
64,192,28946,128,0,29393:0:0:0:0:
448,192,29393,1,0,0:0:0:0:
320,192,29468,1,0,0:0:0:0:
192,192,29543,1,0,0:0:0:0:
320,192,29692,1,0,0:0:0:0:
448,192,29841,1,0,0:0:0:0:
64,192,29841,1,0,0:0:0:0:
192,192,29841,1,0,0:0:0:0:
192,192,29990,1,0,0:0:0:0:
320,192,30065,1,0,0:0:0:0:
448,192,30140,1,0,0:0:0:0:
192,192,30140,1,0,0:0:0:0:
320,192,30289,1,0,0:0:0:0:
448,192,30438,1,0,0:0:0:0:
192,192,30438,1,0,0:0:0:0:
64,192,30587,1,0,0:0:0:0:
192,192,30737,1,0,0:0:0:0:
448,192,30737,1,0,0:0:0:0:
320,192,30886,1,0,0:0:0:0:
64,192,31035,1,0,0:0:0:0:
192,192,31035,1,0,0:0:0:0:
448,192,31110,1,0,0:0:0:0:
64,192,31184,1,0,0:0:0:0:
448,192,31259,1,0,0:0:0:0:
320,192,31334,1,0,0:0:0:0:
64,192,31334,1,0,0:0:0:0:
192,192,31408,1,0,0:0:0:0:
320,192,31483,1,0,0:0:0:0:
192,192,31558,1,0,0:0:0:0:
448,192,31632,1,0,0:0:0:0:
320,192,31632,1,0,0:0:0:0:
64,192,31707,1,0,0:0:0:0:
448,192,31782,1,0,0:0:0:0:
64,192,31856,1,0,0:0:0:0:
192,192,31931,1,0,0:0:0:0:
448,192,31931,1,0,0:0:0:0:
320,192,32005,1,0,0:0:0:0:
192,192,32080,1,0,0:0:0:0:
320,192,32155,1,0,0:0:0:0:
64,192,32229,1,0,0:0:0:0:
448,192,32229,1,0,0:0:0:0:
448,192,32379,1,0,0:0:0:0:
64,192,32379,1,0,0:0:0:0:
448,192,32528,128,0,32677:0:0:0:0:
64,192,32528,128,0,32677:0:0:0:0:
192,192,32677,1,0,0:0:0:0:
320,192,32677,1,0,0:0:0:0:
320,192,32826,1,0,0:0:0:0:
64,192,32826,1,0,0:0:0:0:
320,192,32976,1,0,0:0:0:0:
64,192,32976,1,0,0:0:0:0:
64,192,33125,128,0,33274:0:0:0:0:
320,192,33125,128,0,33274:0:0:0:0:
192,192,33274,1,0,0:0:0:0:
448,192,33274,1,0,0:0:0:0:
192,192,33423,1,0,0:0:0:0:
320,192,33423,1,0,0:0:0:0:
192,192,33573,1,0,0:0:0:0:
320,192,33573,1,0,0:0:0:0:
320,192,33722,128,0,33871:0:0:0:0:
192,192,33722,128,0,33871:0:0:0:0:
448,192,33871,1,0,0:0:0:0:
64,192,33871,1,0,0:0:0:0:
448,192,34020,1,0,0:0:0:0:
192,192,34020,1,0,0:0:0:0:
448,192,34170,1,0,0:0:0:0:
192,192,34170,1,0,0:0:0:0:
448,192,34319,128,0,34468:0:0:0:0:
192,192,34319,128,0,34468:0:0:0:0:
320,192,34468,1,0,0:0:0:0:
64,192,34468,1,0,0:0:0:0:
448,192,34617,1,0,0:0:0:0:
64,192,34617,1,0,0:0:0:0:
448,192,34767,1,0,0:0:0:0:
64,192,34767,1,0,0:0:0:0:
448,192,34916,128,0,35065:0:0:0:0:
64,192,34916,128,0,35065:0:0:0:0:
192,192,35065,1,0,0:0:0:0:
320,192,35065,1,0,0:0:0:0:
320,192,35214,1,0,0:0:0:0:
64,192,35214,1,0,0:0:0:0:
320,192,35364,1,0,0:0:0:0:
64,192,35364,1,0,0:0:0:0:
64,192,35513,128,0,35662:0:0:0:0:
320,192,35513,128,0,35662:0:0:0:0:
192,192,35662,1,0,0:0:0:0:
448,192,35662,1,0,0:0:0:0:
192,192,35811,1,0,0:0:0:0:
320,192,35811,1,0,0:0:0:0:
192,192,35961,1,0,0:0:0:0:
320,192,35961,1,0,0:0:0:0:
320,192,36110,128,0,36259:0:0:0:0:
192,192,36110,128,0,36259:0:0:0:0:
448,192,36259,1,0,0:0:0:0:
64,192,36259,1,0,0:0:0:0:
192,192,36408,1,0,0:0:0:0:
448,192,36408,1,0,0:0:0:0:
192,192,36632,1,0,0:0:0:0:
448,192,36632,1,0,0:0:0:0:
320,192,36707,1,0,0:0:0:0:
192,192,36782,1,0,0:0:0:0:
64,192,36856,1,0,0:0:0:0:
192,192,36931,1,0,0:0:0:0:
448,192,37005,1,0,0:0:0:0:
192,192,37080,1,0,0:0:0:0:
320,192,37155,1,0,0:0:0:0:
64,192,37155,1,0,0:0:0:0:
192,192,37229,1,0,0:0:0:0:
448,192,37304,1,0,0:0:0:0:
64,192,37379,1,0,0:0:0:0:
320,192,37453,1,0,0:0:0:0:
192,192,37453,1,0,0:0:0:0:
64,192,37528,1,0,0:0:0:0:
192,192,37602,1,0,0:0:0:0:
320,192,37677,1,0,0:0:0:0:
192,192,37752,1,0,0:0:0:0:
448,192,37752,1,0,0:0:0:0:
64,192,37826,1,0,0:0:0:0:
320,192,37901,1,0,0:0:0:0:
192,192,37976,1,0,0:0:0:0:
320,192,38050,1,0,0:0:0:0:
64,192,38050,1,0,0:0:0:0:
448,192,38125,1,0,0:0:0:0:
192,192,38199,1,0,0:0:0:0:
320,192,38274,1,0,0:0:0:0:
64,192,38349,1,0,0:0:0:0:
448,192,38349,1,0,0:0:0:0:
192,192,38423,1,0,0:0:0:0:
64,192,38498,1,0,0:0:0:0:
320,192,38573,1,0,0:0:0:0:
192,192,38647,1,0,0:0:0:0:
448,192,38647,1,0,0:0:0:0:
320,192,38722,1,0,0:0:0:0:
192,192,38796,1,0,0:0:0:0:
64,192,38871,1,0,0:0:0:0:
448,192,38946,1,0,0:0:0:0:
320,192,38946,1,0,0:0:0:0:
64,192,39020,1,0,0:0:0:0:
192,192,39095,1,0,0:0:0:0:
448,192,39170,1,0,0:0:0:0:
64,192,39244,1,0,0:0:0:0:
192,192,39244,1,0,0:0:0:0:
320,192,39319,1,0,0:0:0:0:
192,192,39393,1,0,0:0:0:0:
320,192,39468,1,0,0:0:0:0:
448,192,39543,1,0,0:0:0:0:
64,192,39543,1,0,0:0:0:0:
320,192,39617,1,0,0:0:0:0:
64,192,39692,1,0,0:0:0:0:
448,192,39767,1,0,0:0:0:0:
320,192,39841,1,0,0:0:0:0:
192,192,39841,1,0,0:0:0:0:
448,192,39916,1,0,0:0:0:0:
320,192,39990,1,0,0:0:0:0:
448,192,40065,1,0,0:0:0:0:
192,192,40140,1,0,0:0:0:0:
64,192,40140,1,0,0:0:0:0:
320,192,40214,1,0,0:0:0:0:
64,192,40289,1,0,0:0:0:0:
192,192,40289,1,0,0:0:0:0:
320,192,40364,1,0,0:0:0:0:
448,192,40364,1,0,0:0:0:0:
192,192,40438,1,0,0:0:0:0:
64,192,40438,1,0,0:0:0:0:
320,192,40513,1,0,0:0:0:0:
448,192,40513,1,0,0:0:0:0:
64,192,40587,1,0,0:0:0:0:
192,192,40587,1,0,0:0:0:0:
192,192,40811,1,0,0:0:0:0:
64,192,40811,1,0,0:0:0:0:
320,192,40811,1,0,0:0:0:0:
192,192,41035,1,0,0:0:0:0:
64,192,41035,1,0,0:0:0:0:
320,192,41035,1,0,0:0:0:0:
320,192,41184,1,0,0:0:0:0:
448,192,41184,1,0,0:0:0:0:
64,192,41184,1,0,0:0:0:0:
64,192,41483,1,0,0:0:0:0:
320,192,41483,1,0,0:0:0:0:
192,192,41558,1,0,0:0:0:0:
448,192,41558,1,0,0:0:0:0:
320,192,41632,1,0,0:0:0:0:
64,192,41632,1,0,0:0:0:0:
192,192,41707,1,0,0:0:0:0:
448,192,41707,1,0,0:0:0:0:
320,192,41782,1,0,0:0:0:0:
64,192,41782,1,0,0:0:0:0:
192,192,41931,1,0,0:0:0:0:
448,192,41931,1,0,0:0:0:0:
320,192,42080,1,0,0:0:0:0:
192,192,42080,1,0,0:0:0:0:
320,192,42229,1,0,0:0:0:0:
64,192,42229,1,0,0:0:0:0:
192,192,42379,1,0,0:0:0:0:
448,192,42379,1,0,0:0:0:0:
320,192,42528,1,0,0:0:0:0:
64,192,42528,1,0,0:0:0:0:
192,192,42677,1,0,0:0:0:0:
64,192,42677,1,0,0:0:0:0:
320,192,42826,1,0,0:0:0:0:
448,192,42826,1,0,0:0:0:0:
64,192,42976,1,0,0:0:0:0:
320,192,42976,1,0,0:0:0:0:
320,192,43125,1,0,0:0:0:0:
64,192,43125,1,0,0:0:0:0:
192,192,43274,1,0,0:0:0:0:
320,192,43274,1,0,0:0:0:0:
448,192,43423,1,0,0:0:0:0:
64,192,43423,1,0,0:0:0:0:
192,192,43573,1,0,0:0:0:0:
64,192,43573,1,0,0:0:0:0:
192,192,43722,1,0,0:0:0:0:
320,192,43722,1,0,0:0:0:0:
320,192,43871,1,0,0:0:0:0:
448,192,43871,1,0,0:0:0:0:
320,192,44020,1,0,0:0:0:0:
192,192,44020,1,0,0:0:0:0:
448,192,44170,1,0,0:0:0:0:
64,192,44170,1,0,0:0:0:0:
448,192,44319,1,0,0:0:0:0:
64,192,44319,1,0,0:0:0:0:
192,192,44468,1,0,0:0:0:0:
320,192,44468,1,0,0:0:0:0:
64,192,44617,1,0,0:0:0:0:
448,192,44617,1,0,0:0:0:0:
192,192,44767,1,0,0:0:0:0:
448,192,44767,1,0,0:0:0:0:
320,192,44916,1,0,0:0:0:0:
192,192,44916,1,0,0:0:0:0:
320,192,45065,1,0,0:0:0:0:
64,192,45065,1,0,0:0:0:0:
448,192,45214,1,0,0:0:0:0:
64,192,45364,128,0,45811:0:0:0:0:
320,192,45364,1,0,0:0:0:0:
192,192,45811,1,0,0:0:0:0:
320,192,45886,1,0,0:0:0:0:
448,192,45961,128,0,46259:0:0:0:0:
64,192,46259,128,0,46558:0:0:0:0:
192,192,46259,1,0,0:0:0:0:
192,192,46359,1,0,0:0:0:0:
448,192,46359,1,0,0:0:0:0:
448,192,46458,1,0,0:0:0:0:
192,192,46458,1,0,0:0:0:0:
192,192,46558,1,0,0:0:0:0:
448,192,46558,1,0,0:0:0:0:
320,192,46856,1,0,0:0:0:0:
448,192,46856,1,0,0:0:0:0:
320,192,46956,1,0,0:0:0:0:
192,192,46956,1,0,0:0:0:0:
64,192,47055,1,0,0:0:0:0:
192,192,47055,1,0,0:0:0:0:
320,192,47155,128,0,47453:0:0:0:0:
192,192,47453,128,0,47752:0:0:0:0:
448,192,47752,128,0,48050:0:0:0:0:
192,192,48050,128,0,48274:0:0:0:0:
64,192,48274,1,0,0:0:0:0:
320,192,48274,1,0,0:0:0:0:
448,192,48349,128,0,48647:0:0:0:0:
192,192,48647,128,0,48796:0:0:0:0:
320,192,48796,1,0,0:0:0:0:
448,192,48946,128,0,49244:0:0:0:0:
320,192,49244,1,0,0:0:0:0:
192,192,49319,1,0,0:0:0:0:
64,192,49393,1,0,0:0:0:0:
192,192,49468,1,0,0:0:0:0:
320,192,49543,128,0,49841:0:0:0:0:
192,192,49841,1,0,0:0:0:0:
64,192,49841,1,0,0:0:0:0:
64,192,49990,1,0,0:0:0:0:
192,192,49990,1,0,0:0:0:0:
320,192,50140,128,0,50438:0:0:0:0:
448,192,50438,1,0,0:0:0:0:
320,192,50513,1,0,0:0:0:0:
192,192,50587,1,0,0:0:0:0:
320,192,50662,1,0,0:0:0:0:
448,192,50737,128,0,51035:0:0:0:0:
320,192,51035,128,0,51334:0:0:0:0:
448,192,51334,128,0,52528:0:0:0:0:
64,192,51334,1,0,0:0:0:0:
192,192,51408,1,0,0:0:0:0:
64,192,51483,1,0,0:0:0:0:
320,192,51558,1,0,0:0:0:0:
64,192,51632,1,0,0:0:0:0:
192,192,51707,1,0,0:0:0:0:
64,192,51782,1,0,0:0:0:0:
320,192,51856,1,0,0:0:0:0:
192,192,51931,1,0,0:0:0:0:
320,192,52005,1,0,0:0:0:0:
192,192,52080,1,0,0:0:0:0:
64,192,52155,1,0,0:0:0:0:
192,192,52229,1,0,0:0:0:0:
320,192,52304,1,0,0:0:0:0:
64,192,52379,1,0,0:0:0:0:
320,192,52453,1,0,0:0:0:0:
192,192,52528,1,0,0:0:0:0:
64,192,52528,128,0,52976:0:0:0:0:
192,192,52976,1,0,0:0:0:0:
448,192,53050,1,0,0:0:0:0:
320,192,53125,1,0,0:0:0:0:
192,192,53125,1,0,0:0:0:0:
64,192,53199,1,0,0:0:0:0:
448,192,53199,1,0,0:0:0:0:
320,192,53274,1,0,0:0:0:0:
192,192,53274,1,0,0:0:0:0:
64,192,53349,1,0,0:0:0:0:
448,192,53349,1,0,0:0:0:0:
192,192,53423,1,0,0:0:0:0:
320,192,53423,1,0,0:0:0:0:
64,192,53498,1,0,0:0:0:0:
448,192,53498,1,0,0:0:0:0:
320,192,53573,1,0,0:0:0:0:
192,192,53573,1,0,0:0:0:0:
64,192,53647,1,0,0:0:0:0:
448,192,53722,128,0,53946:0:0:0:0:
320,192,53722,1,0,0:0:0:0:
192,192,53796,1,0,0:0:0:0:
64,192,53871,1,0,0:0:0:0:
320,192,53946,128,0,54170:0:0:0:0:
192,192,53946,1,0,0:0:0:0:
64,192,54020,1,0,0:0:0:0:
192,192,54095,1,0,0:0:0:0:
448,192,54170,128,0,54617:0:0:0:0:
64,192,54170,1,0,0:0:0:0:
192,192,54244,1,0,0:0:0:0:
320,192,54319,1,0,0:0:0:0:
192,192,54393,1,0,0:0:0:0:
64,192,54468,1,0,0:0:0:0:
320,192,54468,1,0,0:0:0:0:
192,192,54543,1,0,0:0:0:0:
64,192,54617,1,0,0:0:0:0:
192,192,54692,1,0,0:0:0:0:
320,192,54767,1,0,0:0:0:0:
64,192,54767,1,0,0:0:0:0:
448,192,54841,1,0,0:0:0:0:
192,192,54916,128,0,55140:0:0:0:0:
64,192,54916,1,0,0:0:0:0:
320,192,54990,1,0,0:0:0:0:
448,192,55065,1,0,0:0:0:0:
64,192,55140,128,0,55364:0:0:0:0:
320,192,55140,1,0,0:0:0:0:
192,192,55214,1,0,0:0:0:0:
320,192,55289,1,0,0:0:0:0:
192,192,55364,128,0,55662:0:0:0:0:
448,192,55364,1,0,0:0:0:0:
320,192,55438,1,0,0:0:0:0:
64,192,55513,1,0,0:0:0:0:
320,192,55587,1,0,0:0:0:0:
64,192,55662,1,0,0:0:0:0:
448,192,55662,128,0,55811:0:0:0:0:
192,192,55737,1,0,0:0:0:0:
320,192,55811,128,0,55961:0:0:0:0:
64,192,55811,1,0,0:0:0:0:
448,192,55886,1,0,0:0:0:0:
64,192,55961,1,0,0:0:0:0:
192,192,55961,128,0,56110:0:0:0:0:
320,192,56035,1,0,0:0:0:0:
448,192,56110,128,0,56334:0:0:0:0:
64,192,56110,1,0,0:0:0:0:
192,192,56184,1,0,0:0:0:0:
320,192,56259,1,0,0:0:0:0:
64,192,56259,1,0,0:0:0:0:
64,192,56334,128,0,56558:0:0:0:0:
192,192,56334,1,0,0:0:0:0:
320,192,56408,1,0,0:0:0:0:
448,192,56483,1,0,0:0:0:0:
192,192,56558,128,0,56707:0:0:0:0:
320,192,56558,1,0,0:0:0:0:
64,192,56632,1,0,0:0:0:0:
448,192,56707,128,0,56931:0:0:0:0:
320,192,56707,1,0,0:0:0:0:
192,192,56782,1,0,0:0:0:0:
320,192,56856,1,0,0:0:0:0:
64,192,56931,128,0,57155:0:0:0:0:
192,192,56931,1,0,0:0:0:0:
320,192,57005,1,0,0:0:0:0:
448,192,57080,1,0,0:0:0:0:
192,192,57155,128,0,57304:0:0:0:0:
320,192,57155,1,0,0:0:0:0:
64,192,57229,1,0,0:0:0:0:
320,192,57304,1,0,0:0:0:0:
448,192,57304,128,0,57901:0:0:0:0:
192,192,57379,1,0,0:0:0:0:
64,192,57453,1,0,0:0:0:0:
320,192,57453,1,0,0:0:0:0:
192,192,57528,1,0,0:0:0:0:
64,192,57602,1,0,0:0:0:0:
192,192,57677,1,0,0:0:0:0:
64,192,57752,1,0,0:0:0:0:
320,192,57752,1,0,0:0:0:0:
192,192,57826,1,0,0:0:0:0:
64,192,57901,1,0,0:0:0:0:
192,192,57976,1,0,0:0:0:0:
320,192,58050,1,0,0:0:0:0:
64,192,58050,1,0,0:0:0:0:
448,192,58125,1,0,0:0:0:0:
192,192,58199,1,0,0:0:0:0:
64,192,58199,1,0,0:0:0:0:
320,192,58199,1,0,0:0:0:0:
448,192,58274,1,0,0:0:0:0:
320,192,58349,1,0,0:0:0:0:
64,192,58349,1,0,0:0:0:0:
192,192,58423,1,0,0:0:0:0:
448,192,58498,128,0,58722:0:0:0:0:
64,192,58498,1,0,0:0:0:0:
320,192,58573,1,0,0:0:0:0:
64,192,58647,1,0,0:0:0:0:
192,192,58722,128,0,58946:0:0:0:0:
320,192,58722,1,0,0:0:0:0:
64,192,58796,1,0,0:0:0:0:
448,192,58871,1,0,0:0:0:0:
320,192,58946,128,0,59244:0:0:0:0:
64,192,58946,1,0,0:0:0:0:
448,192,59020,1,0,0:0:0:0:
192,192,59095,1,0,0:0:0:0:
448,192,59170,1,0,0:0:0:0:
64,192,59244,128,0,59393:0:0:0:0:
192,192,59244,1,0,0:0:0:0:
320,192,59319,1,0,0:0:0:0:
192,192,59393,128,0,59543:0:0:0:0:
448,192,59393,1,0,0:0:0:0:
64,192,59468,1,0,0:0:0:0:
320,192,59543,128,0,59692:0:0:0:0:
448,192,59543,1,0,0:0:0:0:
192,192,59617,1,0,0:0:0:0:
448,192,59692,128,0,59841:0:0:0:0:
64,192,59692,1,0,0:0:0:0:
192,192,59767,1,0,0:0:0:0:
320,192,59841,1,0,0:0:0:0:
64,192,59841,1,0,0:0:0:0:
192,192,59916,1,0,0:0:0:0:
64,192,59990,128,0,60289:0:0:0:0:
320,192,59990,1,0,0:0:0:0:
448,192,60065,1,0,0:0:0:0:
192,192,60140,1,0,0:0:0:0:
320,192,60140,1,0,0:0:0:0:
448,192,60214,1,0,0:0:0:0:
320,192,60289,1,0,0:0:0:0:
192,192,60289,1,0,0:0:0:0:
448,192,60364,1,0,0:0:0:0:
192,192,60438,1,0,0:0:0:0:
320,192,60438,1,0,0:0:0:0:
64,192,60513,1,0,0:0:0:0:
448,192,60587,1,0,0:0:0:0:
192,192,60587,1,0,0:0:0:0:
320,192,60662,1,0,0:0:0:0:
192,192,60737,1,0,0:0:0:0:
448,192,60737,1,0,0:0:0:0:
64,192,60811,1,0,0:0:0:0:
320,192,60886,128,0,61110:0:0:0:0:
448,192,60886,1,0,0:0:0:0:
64,192,60961,1,0,0:0:0:0:
448,192,61035,1,0,0:0:0:0:
192,192,61110,128,0,61334:0:0:0:0:
64,192,61110,1,0,0:0:0:0:
448,192,61184,1,0,0:0:0:0:
320,192,61259,1,0,0:0:0:0:
64,192,61334,128,0,61483:0:0:0:0:
448,192,61334,1,0,0:0:0:0:
320,192,61408,1,0,0:0:0:0:
448,192,61483,128,0,61707:0:0:0:0:
192,192,61483,1,0,0:0:0:0:
320,192,61558,1,0,0:0:0:0:
192,192,61632,1,0,0:0:0:0:
320,192,61707,128,0,61931:0:0:0:0:
64,192,61707,1,0,0:0:0:0:
192,192,61782,1,0,0:0:0:0:
64,192,61856,1,0,0:0:0:0:
192,192,61931,128,0,62080:0:0:0:0:
448,192,61931,1,0,0:0:0:0:
320,192,62005,1,0,0:0:0:0:
64,192,62080,128,0,62304:0:0:0:0:
448,192,62080,1,0,0:0:0:0:
320,192,62155,1,0,0:0:0:0:
448,192,62229,1,0,0:0:0:0:
192,192,62304,128,0,62528:0:0:0:0:
320,192,62304,1,0,0:0:0:0:
448,192,62379,1,0,0:0:0:0:
64,192,62453,1,0,0:0:0:0:
320,192,62528,128,0,62677:0:0:0:0:
448,192,62528,1,0,0:0:0:0:
64,192,62602,1,0,0:0:0:0:
192,192,62677,128,0,62901:0:0:0:0:
448,192,62677,1,0,0:0:0:0:
64,192,62752,1,0,0:0:0:0:
448,192,62826,1,0,0:0:0:0:
320,192,62901,1,0,0:0:0:0:
64,192,62901,128,0,63125:0:0:0:0:
448,192,62976,1,0,0:0:0:0:
320,192,63050,1,0,0:0:0:0:
192,192,63125,128,0,63573:0:0:0:0:
448,192,63125,1,0,0:0:0:0:
320,192,63199,1,0,0:0:0:0:
448,192,63274,1,0,0:0:0:0:
320,192,63349,1,0,0:0:0:0:
64,192,63423,1,0,0:0:0:0:
448,192,63498,1,0,0:0:0:0:
64,192,63573,1,0,0:0:0:0:
320,192,63573,1,0,0:0:0:0:
448,192,63647,1,0,0:0:0:0:
320,192,63722,1,0,0:0:0:0:
192,192,63722,1,0,0:0:0:0:
448,192,63796,1,0,0:0:0:0:
192,192,63871,1,0,0:0:0:0:
64,192,63946,1,0,0:0:0:0:
192,192,64020,1,0,0:0:0:0:
448,192,64020,1,0,0:0:0:0:
320,192,64095,1,0,0:0:0:0:
64,192,64170,1,0,0:0:0:0:
192,192,64244,1,0,0:0:0:0:
320,192,64319,1,0,0:0:0:0:
64,192,64319,1,0,0:0:0:0:
448,192,64393,1,0,0:0:0:0:
64,192,64468,128,0,64692:0:0:0:0:
192,192,64468,1,0,0:0:0:0:
320,192,64543,1,0,0:0:0:0:
448,192,64617,1,0,0:0:0:0:
192,192,64617,1,0,0:0:0:0:
192,192,64692,128,0,64916:0:0:0:0:
320,192,64692,1,0,0:0:0:0:
448,192,64767,1,0,0:0:0:0:
64,192,64841,1,0,0:0:0:0:
320,192,64916,128,0,65214:0:0:0:0:
448,192,64916,1,0,0:0:0:0:
64,192,64990,1,0,0:0:0:0:
448,192,65065,1,0,0:0:0:0:
64,192,65140,1,0,0:0:0:0:
192,192,65214,128,0,65364:0:0:0:0:
448,192,65214,1,0,0:0:0:0:
320,192,65289,1,0,0:0:0:0:
448,192,65364,128,0,65513:0:0:0:0:
64,192,65364,1,0,0:0:0:0:
320,192,65438,1,0,0:0:0:0:
64,192,65513,128,0,65662:0:0:0:0:
192,192,65513,1,0,0:0:0:0:
192,192,65662,128,0,65886:0:0:0:0:
320,192,65662,1,0,0:0:0:0:
448,192,65737,1,0,0:0:0:0:
64,192,65811,1,0,0:0:0:0:
448,192,65886,128,0,66110:0:0:0:0:
320,192,65886,1,0,0:0:0:0:
64,192,65961,1,0,0:0:0:0:
192,192,66035,1,0,0:0:0:0:
320,192,66110,128,0,66259:0:0:0:0:
64,192,66110,1,0,0:0:0:0:
448,192,66184,1,0,0:0:0:0:
192,192,66259,128,0,66483:0:0:0:0:
64,192,66259,1,0,0:0:0:0:
448,192,66334,1,0,0:0:0:0:
64,192,66408,1,0,0:0:0:0:
320,192,66483,128,0,66707:0:0:0:0:
448,192,66483,1,0,0:0:0:0:
192,192,66558,1,0,0:0:0:0:
64,192,66632,1,0,0:0:0:0:
192,192,66707,128,0,66856:0:0:0:0:
448,192,66707,1,0,0:0:0:0:
320,192,66782,1,0,0:0:0:0:
448,192,66856,128,0,67453:0:0:0:0:
64,192,66856,1,0,0:0:0:0:
192,192,66931,1,0,0:0:0:0:
320,192,67005,1,0,0:0:0:0:
64,192,67005,1,0,0:0:0:0:
192,192,67080,1,0,0:0:0:0:
64,192,67155,1,0,0:0:0:0:
192,192,67229,1,0,0:0:0:0:
320,192,67304,1,0,0:0:0:0:
64,192,67304,1,0,0:0:0:0:
192,192,67379,1,0,0:0:0:0:
64,192,67453,128,0,67752:0:0:0:0:
320,192,67453,1,0,0:0:0:0:
192,192,67528,1,0,0:0:0:0:
448,192,67602,1,0,0:0:0:0:
320,192,67602,1,0,0:0:0:0:
192,192,67677,1,0,0:0:0:0:
448,192,67752,128,0,68050:0:0:0:0:
320,192,67752,1,0,0:0:0:0:
192,192,67826,1,0,0:0:0:0:
64,192,67901,1,0,0:0:0:0:
320,192,67901,1,0,0:0:0:0:
192,192,67976,1,0,0:0:0:0:
320,192,68050,128,0,68274:0:0:0:0:
64,192,68050,1,0,0:0:0:0:
192,192,68125,1,0,0:0:0:0:
448,192,68199,1,0,0:0:0:0:
64,192,68199,1,0,0:0:0:0:
192,192,68274,1,0,0:0:0:0:
192,192,68349,128,0,68647:0:0:0:0:
320,192,68349,1,0,0:0:0:0:
448,192,68423,1,0,0:0:0:0:
64,192,68498,1,0,0:0:0:0:
320,192,68498,1,0,0:0:0:0:
448,192,68573,1,0,0:0:0:0:
320,192,68647,1,0,0:0:0:0:
64,192,68647,1,0,0:0:0:0:
192,192,68722,1,0,0:0:0:0:
320,192,68796,1,0,0:0:0:0:
448,192,68871,1,0,0:0:0:0:
320,192,68946,1,0,0:0:0:0:
192,192,69020,1,0,0:0:0:0:
64,192,69095,1,0,0:0:0:0:
192,192,69170,1,0,0:0:0:0:
320,192,69244,128,0,69468:0:0:0:0:
64,192,69244,1,0,0:0:0:0:
448,192,69319,1,0,0:0:0:0:
192,192,69393,1,0,0:0:0:0:
448,192,69468,1,0,0:0:0:0:
64,192,69468,1,0,0:0:0:0:
448,192,69543,128,0,69841:0:0:0:0:
192,192,69543,1,0,0:0:0:0:
320,192,69617,1,0,0:0:0:0:
192,192,69692,1,0,0:0:0:0:
64,192,69767,1,0,0:0:0:0:
192,192,69841,1,0,0:0:0:0:
320,192,69916,1,0,0:0:0:0:
192,192,69990,1,0,0:0:0:0:
320,192,70065,1,0,0:0:0:0:
192,192,70140,128,0,70438:0:0:0:0:
448,192,70140,128,0,70438:0:0:0:0:
64,192,70438,1,0,0:0:0:0:
320,192,70438,1,0,0:0:0:0:
192,192,70513,1,0,0:0:0:0:
320,192,70587,1,0,0:0:0:0:
448,192,70662,1,0,0:0:0:0:
320,192,70737,1,0,0:0:0:0:
192,192,70737,1,0,0:0:0:0:
448,192,70811,1,0,0:0:0:0:
64,192,70886,1,0,0:0:0:0:
192,192,70961,1,0,0:0:0:0:
320,192,71035,1,0,0:0:0:0:
64,192,71035,1,0,0:0:0:0:
448,192,71110,1,0,0:0:0:0:
320,192,71184,1,0,0:0:0:0:
192,192,71259,1,0,0:0:0:0:
64,192,71334,1,0,0:0:0:0:
320,192,71334,1,0,0:0:0:0:
192,192,71408,1,0,0:0:0:0:
320,192,71483,1,0,0:0:0:0:
192,192,71558,1,0,0:0:0:0:
448,192,71632,1,0,0:0:0:0:
64,192,71632,1,0,0:0:0:0:
192,192,71707,1,0,0:0:0:0:
320,192,71782,1,0,0:0:0:0:
448,192,71856,1,0,0:0:0:0:
320,192,71931,1,0,0:0:0:0:
64,192,71931,1,0,0:0:0:0:
448,192,72005,1,0,0:0:0:0:
320,192,72080,1,0,0:0:0:0:
192,192,72155,1,0,0:0:0:0:
320,192,72229,1,0,0:0:0:0:
448,192,72229,1,0,0:0:0:0:
192,192,72304,1,0,0:0:0:0:
64,192,72304,1,0,0:0:0:0:
320,192,72379,1,0,0:0:0:0:
448,192,72379,1,0,0:0:0:0:
192,192,72453,1,0,0:0:0:0:
64,192,72453,1,0,0:0:0:0:
320,192,72528,1,0,0:0:0:0:
448,192,72528,1,0,0:0:0:0:
192,192,72602,1,0,0:0:0:0:
64,192,72602,1,0,0:0:0:0:
320,192,72677,1,0,0:0:0:0:
448,192,72677,1,0,0:0:0:0:
192,192,72752,1,0,0:0:0:0:
64,192,72752,1,0,0:0:0:0:
448,192,72826,128,0,75214:0:0:0:0:
64,192,74020,1,0,0:0:0:0:
192,192,75214,1,0,0:0:0:0:
320,192,75811,1,0,0:0:0:0:
448,192,76408,1,0,0:0:0:0:
320,192,76558,1,0,0:0:0:0:
192,192,76707,1,0,0:0:0:0:
64,192,76856,1,0,0:0:0:0:
64,192,77005,1,0,0:0:0:0:
192,192,77155,1,0,0:0:0:0:
320,192,77304,1,0,0:0:0:0:
448,192,77453,1,0,0:0:0:0:
320,192,77528,1,0,0:0:0:0:
192,192,77602,128,0,78796:0:0:0:0:
64,192,77602,1,0,0:0:0:0:
320,192,78796,1,0,0:0:0:0:
448,192,79393,1,0,0:0:0:0:
64,192,79990,1,0,0:0:0:0:
320,192,79990,128,0,81184:0:0:0:0:
192,192,81184,1,0,0:0:0:0:
64,192,81184,128,0,81782:0:0:0:0:
192,192,81782,128,0,82379:0:0:0:0:
320,192,82379,1,0,0:0:0:0:
448,192,82379,1,0,0:0:0:0:
320,192,82478,1,0,0:0:0:0:
192,192,82478,1,0,0:0:0:0:
192,192,82578,1,0,0:0:0:0:
64,192,82578,1,0,0:0:0:0:
448,192,82677,1,0,0:0:0:0:
320,192,82677,1,0,0:0:0:0:
64,192,82777,1,0,0:0:0:0:
192,192,82777,1,0,0:0:0:0:
448,192,82876,1,0,0:0:0:0:
320,192,82876,1,0,0:0:0:0:
64,192,82976,1,0,0:0:0:0:
192,192,82976,1,0,0:0:0:0:
192,192,83075,1,0,0:0:0:0:
320,192,83075,1,0,0:0:0:0:
320,192,83175,1,0,0:0:0:0:
448,192,83175,1,0,0:0:0:0:
64,192,83274,1,0,0:0:0:0:
192,192,83274,1,0,0:0:0:0:
448,192,83374,1,0,0:0:0:0:
320,192,83374,1,0,0:0:0:0:
64,192,83473,1,0,0:0:0:0:
192,192,83473,1,0,0:0:0:0:
320,192,83573,1,0,0:0:0:0:
448,192,83573,1,0,0:0:0:0:
320,192,83672,1,0,0:0:0:0:
192,192,83672,1,0,0:0:0:0:
64,192,83772,1,0,0:0:0:0:
192,192,83772,1,0,0:0:0:0:
448,192,83871,1,0,0:0:0:0:
320,192,83871,1,0,0:0:0:0:
448,192,83971,1,0,0:0:0:0:
320,192,83971,1,0,0:0:0:0:
448,192,84070,1,0,0:0:0:0:
320,192,84070,1,0,0:0:0:0:
192,192,84170,1,0,0:0:0:0:
64,192,84170,1,0,0:0:0:0:
192,192,84269,1,0,0:0:0:0:
320,192,84269,1,0,0:0:0:0:
448,192,84369,1,0,0:0:0:0:
320,192,84369,1,0,0:0:0:0:
64,192,84468,1,0,0:0:0:0:
192,192,84468,1,0,0:0:0:0:
64,192,84568,1,0,0:0:0:0:
192,192,84568,1,0,0:0:0:0:
64,192,84667,1,0,0:0:0:0:
192,192,84667,1,0,0:0:0:0:
448,192,84767,1,0,0:0:0:0:
320,192,84767,1,0,0:0:0:0:
320,192,84866,1,0,0:0:0:0:
192,192,84866,1,0,0:0:0:0:
320,192,84966,1,0,0:0:0:0:
448,192,84966,1,0,0:0:0:0:
64,192,85065,1,0,0:0:0:0:
192,192,85065,1,0,0:0:0:0:
192,192,85165,1,0,0:0:0:0:
320,192,85165,1,0,0:0:0:0:
192,192,85264,1,0,0:0:0:0:
64,192,85264,1,0,0:0:0:0:
448,192,85364,1,0,0:0:0:0:
320,192,85364,1,0,0:0:0:0:
192,192,85463,1,0,0:0:0:0:
320,192,85463,1,0,0:0:0:0:
192,192,85563,1,0,0:0:0:0:
64,192,85563,1,0,0:0:0:0:
64,192,85662,1,0,0:0:0:0:
192,192,85662,1,0,0:0:0:0:
320,192,85762,1,0,0:0:0:0:
192,192,85762,1,0,0:0:0:0:
320,192,85861,1,0,0:0:0:0:
448,192,85861,1,0,0:0:0:0:
192,192,85961,1,0,0:0:0:0:
64,192,85961,1,0,0:0:0:0:
448,192,86035,1,0,0:0:0:0:
320,192,86110,1,0,0:0:0:0:
192,192,86184,1,0,0:0:0:0:
320,192,86259,1,0,0:0:0:0:
448,192,86334,1,0,0:0:0:0:
320,192,86408,1,0,0:0:0:0:
192,192,86483,1,0,0:0:0:0:
64,192,86558,1,0,0:0:0:0:
320,192,86558,1,0,0:0:0:0:
448,192,86558,1,0,0:0:0:0:
192,192,86632,1,0,0:0:0:0:
320,192,86707,1,0,0:0:0:0:
64,192,86707,1,0,0:0:0:0:
448,192,86707,1,0,0:0:0:0:
192,192,86782,1,0,0:0:0:0:
64,192,86856,1,0,0:0:0:0:
320,192,86856,1,0,0:0:0:0:
448,192,86856,1,0,0:0:0:0:
192,192,86931,1,0,0:0:0:0:
320,192,87005,1,0,0:0:0:0:
64,192,87005,1,0,0:0:0:0:
448,192,87005,1,0,0:0:0:0:
192,192,87080,1,0,0:0:0:0:
448,192,87155,128,0,87453:0:0:0:0:
64,192,87155,128,0,87453:0:0:0:0:
320,192,87453,1,0,0:0:0:0:
192,192,87528,1,0,0:0:0:0:
64,192,87602,1,0,0:0:0:0:
192,192,87677,1,0,0:0:0:0:
448,192,87752,1,0,0:0:0:0:
64,192,87752,1,0,0:0:0:0:
320,192,87826,1,0,0:0:0:0:
64,192,87901,1,0,0:0:0:0:
448,192,87976,1,0,0:0:0:0:
192,192,88050,1,0,0:0:0:0:
448,192,88125,1,0,0:0:0:0:
64,192,88199,1,0,0:0:0:0:
320,192,88274,1,0,0:0:0:0:
192,192,88349,1,0,0:0:0:0:
64,192,88349,1,0,0:0:0:0:
448,192,88423,1,0,0:0:0:0:
64,192,88498,1,0,0:0:0:0:
320,192,88573,1,0,0:0:0:0:
448,192,88647,1,0,0:0:0:0:
64,192,88722,1,0,0:0:0:0:
320,192,88796,1,0,0:0:0:0:
192,192,88871,1,0,0:0:0:0:
448,192,88946,1,0,0:0:0:0:
64,192,88946,1,0,0:0:0:0:
320,192,89020,1,0,0:0:0:0:
64,192,89095,1,0,0:0:0:0:
448,192,89170,1,0,0:0:0:0:
192,192,89244,1,0,0:0:0:0:
448,192,89319,1,0,0:0:0:0:
64,192,89393,1,0,0:0:0:0:
320,192,89468,1,0,0:0:0:0:
192,192,89543,1,0,0:0:0:0:
448,192,89543,1,0,0:0:0:0:
320,192,89617,1,0,0:0:0:0:
192,192,89692,1,0,0:0:0:0:
448,192,89692,1,0,0:0:0:0:
320,192,89767,1,0,0:0:0:0:
448,192,89841,1,0,0:0:0:0:
192,192,89841,1,0,0:0:0:0:
320,192,89916,1,0,0:0:0:0:
448,192,89990,1,0,0:0:0:0:
192,192,89990,1,0,0:0:0:0:
320,192,90065,1,0,0:0:0:0:
448,192,90140,1,0,0:0:0:0:
192,192,90140,1,0,0:0:0:0:
320,192,90214,1,0,0:0:0:0:
448,192,90289,1,0,0:0:0:0:
64,192,90289,1,0,0:0:0:0:
192,192,90364,1,0,0:0:0:0:
448,192,90438,1,0,0:0:0:0:
64,192,90438,1,0,0:0:0:0:
320,192,90513,1,0,0:0:0:0:
448,192,90587,1,0,0:0:0:0:
64,192,90587,1,0,0:0:0:0:
192,192,90662,1,0,0:0:0:0:
64,192,90737,1,0,0:0:0:0:
320,192,90737,128,0,91184:0:0:0:0:
64,192,91184,1,0,0:0:0:0:
192,192,91259,1,0,0:0:0:0:
448,192,91334,1,0,0:0:0:0:
64,192,91334,1,0,0:0:0:0:
192,192,91408,1,0,0:0:0:0:
448,192,91483,1,0,0:0:0:0:
64,192,91483,1,0,0:0:0:0:
320,192,91558,1,0,0:0:0:0:
64,192,91632,1,0,0:0:0:0:
448,192,91632,1,0,0:0:0:0:
320,192,91707,1,0,0:0:0:0:
64,192,91782,1,0,0:0:0:0:
448,192,91782,1,0,0:0:0:0:
192,192,91856,1,0,0:0:0:0:
448,192,91931,128,0,92528:0:0:0:0:
64,192,91931,128,0,92528:0:0:0:0:
192,192,92528,1,0,0:0:0:0:
320,192,92602,1,0,0:0:0:0:
192,192,92677,1,0,0:0:0:0:
320,192,92752,1,0,0:0:0:0:
192,192,92826,1,0,0:0:0:0:
320,192,92901,1,0,0:0:0:0:
192,192,92976,1,0,0:0:0:0:
64,192,93050,1,0,0:0:0:0:
448,192,93125,128,0,93349:0:0:0:0:
320,192,93125,1,0,0:0:0:0:
64,192,93199,1,0,0:0:0:0:
192,192,93274,1,0,0:0:0:0:
320,192,93349,128,0,93573:0:0:0:0:
64,192,93349,1,0,0:0:0:0:
192,192,93423,1,0,0:0:0:0:
64,192,93498,1,0,0:0:0:0:
192,192,93573,128,0,94020:0:0:0:0:
448,192,93573,1,0,0:0:0:0:
320,192,93647,1,0,0:0:0:0:
64,192,93722,1,0,0:0:0:0:
320,192,93796,1,0,0:0:0:0:
448,192,93871,1,0,0:0:0:0:
64,192,93871,1,0,0:0:0:0:
320,192,93946,1,0,0:0:0:0:
448,192,94020,1,0,0:0:0:0:
320,192,94095,1,0,0:0:0:0:
192,192,94170,1,0,0:0:0:0:
64,192,94244,1,0,0:0:0:0:
192,192,94319,128,0,94543:0:0:0:0:
448,192,94319,1,0,0:0:0:0:
320,192,94393,1,0,0:0:0:0:
64,192,94468,1,0,0:0:0:0:
320,192,94543,128,0,94767:0:0:0:0:
448,192,94543,1,0,0:0:0:0:
192,192,94617,1,0,0:0:0:0:
64,192,94692,1,0,0:0:0:0:
448,192,94767,128,0,95065:0:0:0:0:
192,192,94767,1,0,0:0:0:0:
64,192,94841,1,0,0:0:0:0:
192,192,94916,1,0,0:0:0:0:
320,192,94990,1,0,0:0:0:0:
64,192,95065,128,0,95214:0:0:0:0:
192,192,95065,1,0,0:0:0:0:
320,192,95140,1,0,0:0:0:0:
192,192,95214,128,0,95364:0:0:0:0:
448,192,95214,1,0,0:0:0:0:
320,192,95364,128,0,95513:0:0:0:0:
448,192,95364,1,0,0:0:0:0:
64,192,95364,1,0,0:0:0:0:
192,192,95438,1,0,0:0:0:0:
448,192,95513,128,0,95737:0:0:0:0:
64,192,95513,1,0,0:0:0:0:
320,192,95587,1,0,0:0:0:0:
192,192,95662,1,0,0:0:0:0:
320,192,95737,128,0,95961:0:0:0:0:
64,192,95737,1,0,0:0:0:0:
192,192,95811,1,0,0:0:0:0:
64,192,95886,1,0,0:0:0:0:
192,192,95961,128,0,96184:0:0:0:0:
448,192,95961,1,0,0:0:0:0:
320,192,96035,1,0,0:0:0:0:
64,192,96110,1,0,0:0:0:0:
320,192,96184,128,0,96408:0:0:0:0:
448,192,96184,1,0,0:0:0:0:
192,192,96259,1,0,0:0:0:0:
64,192,96334,1,0,0:0:0:0:
448,192,96408,128,0,96558:0:0:0:0:
192,192,96408,1,0,0:0:0:0:
64,192,96483,1,0,0:0:0:0:
320,192,96558,128,0,96707:0:0:0:0:
192,192,96558,1,0,0:0:0:0:
64,192,96632,1,0,0:0:0:0:
192,192,96707,128,0,97304:0:0:0:0:
448,192,96707,1,0,0:0:0:0:
320,192,96782,1,0,0:0:0:0:
64,192,96856,1,0,0:0:0:0:
448,192,96856,1,0,0:0:0:0:
320,192,96931,1,0,0:0:0:0:
448,192,97005,1,0,0:0:0:0:
320,192,97080,1,0,0:0:0:0:
64,192,97155,1,0,0:0:0:0:
448,192,97155,1,0,0:0:0:0:
320,192,97229,1,0,0:0:0:0:
448,192,97304,1,0,0:0:0:0:
64,192,97304,1,0,0:0:0:0:
192,192,97379,1,0,0:0:0:0:
320,192,97453,1,0,0:0:0:0:
192,192,97528,1,0,0:0:0:0:
64,192,97602,1,0,0:0:0:0:
320,192,97602,1,0,0:0:0:0:
448,192,97602,1,0,0:0:0:0:
192,192,97677,1,0,0:0:0:0:
320,192,97752,1,0,0:0:0:0:
448,192,97826,1,0,0:0:0:0:
320,192,97901,128,0,98125:0:0:0:0:
64,192,97901,1,0,0:0:0:0:
448,192,97976,1,0,0:0:0:0:
64,192,98050,1,0,0:0:0:0:
192,192,98125,128,0,98349:0:0:0:0:
448,192,98125,1,0,0:0:0:0:
64,192,98199,1,0,0:0:0:0:
320,192,98274,1,0,0:0:0:0:
64,192,98349,128,0,98647:0:0:0:0:
448,192,98349,1,0,0:0:0:0:
320,192,98423,1,0,0:0:0:0:
192,192,98498,1,0,0:0:0:0:
320,192,98573,1,0,0:0:0:0:
448,192,98647,128,0,98796:0:0:0:0:
192,192,98647,1,0,0:0:0:0:
64,192,98722,1,0,0:0:0:0:
320,192,98796,128,0,98946:0:0:0:0:
192,192,98796,1,0,0:0:0:0:
64,192,98871,1,0,0:0:0:0:
192,192,98946,128,0,99095:0:0:0:0:
448,192,98946,1,0,0:0:0:0:
320,192,99020,1,0,0:0:0:0:
64,192,99095,128,0,99244:0:0:0:0:
448,192,99095,1,0,0:0:0:0:
320,192,99170,1,0,0:0:0:0:
192,192,99244,1,0,0:0:0:0:
448,192,99244,1,0,0:0:0:0:
320,192,99319,1,0,0:0:0:0:
448,192,99393,128,0,99692:0:0:0:0:
192,192,99393,1,0,0:0:0:0:
64,192,99468,1,0,0:0:0:0:
192,192,99543,1,0,0:0:0:0:
320,192,99617,1,0,0:0:0:0:
64,192,99692,128,0,99841:0:0:0:0:
192,192,99692,1,0,0:0:0:0:
320,192,99767,1,0,0:0:0:0:
192,192,99841,128,0,99990:0:0:0:0:
448,192,99841,1,0,0:0:0:0:
64,192,99916,1,0,0:0:0:0:
320,192,99990,128,0,100140:0:0:0:0:
448,192,99990,1,0,0:0:0:0:
192,192,100065,1,0,0:0:0:0:
448,192,100140,128,0,100289:0:0:0:0:
64,192,100140,1,0,0:0:0:0:
192,192,100214,1,0,0:0:0:0:
64,192,100289,128,0,100513:0:0:0:0:
320,192,100289,1,0,0:0:0:0:
192,192,100364,1,0,0:0:0:0:
320,192,100438,1,0,0:0:0:0:
192,192,100513,128,0,100737:0:0:0:0:
448,192,100513,1,0,0:0:0:0:
320,192,100587,1,0,0:0:0:0:
64,192,100662,1,0,0:0:0:0:
320,192,100737,128,0,100886:0:0:0:0:
448,192,100737,1,0,0:0:0:0:
192,192,100811,1,0,0:0:0:0:
64,192,100886,128,0,101110:0:0:0:0:
448,192,100886,1,0,0:0:0:0:
192,192,100961,1,0,0:0:0:0:
320,192,101035,1,0,0:0:0:0:
192,192,101110,128,0,101334:0:0:0:0:
448,192,101110,1,0,0:0:0:0:
320,192,101184,1,0,0:0:0:0:
64,192,101259,1,0,0:0:0:0:
320,192,101334,128,0,101483:0:0:0:0:
448,192,101334,1,0,0:0:0:0:
64,192,101408,1,0,0:0:0:0:
192,192,101483,128,0,101707:0:0:0:0:
448,192,101483,1,0,0:0:0:0:
320,192,101558,1,0,0:0:0:0:
64,192,101632,1,0,0:0:0:0:
320,192,101707,128,0,101931:0:0:0:0:
448,192,101707,1,0,0:0:0:0:
192,192,101782,1,0,0:0:0:0:
64,192,101856,1,0,0:0:0:0:
448,192,101931,128,0,102379:0:0:0:0:
192,192,101931,1,0,0:0:0:0:
64,192,102005,1,0,0:0:0:0:
192,192,102080,1,0,0:0:0:0:
320,192,102155,1,0,0:0:0:0:
64,192,102229,1,0,0:0:0:0:
192,192,102304,1,0,0:0:0:0:
64,192,102379,1,0,0:0:0:0:
192,192,102453,1,0,0:0:0:0:
320,192,102528,1,0,0:0:0:0:
448,192,102602,1,0,0:0:0:0:
320,192,102677,1,0,0:0:0:0:
192,192,102677,1,0,0:0:0:0:
64,192,102677,1,0,0:0:0:0:
448,192,102752,1,0,0:0:0:0:
64,192,102826,1,0,0:0:0:0:
320,192,102901,1,0,0:0:0:0:
448,192,102976,1,0,0:0:0:0:
192,192,102976,1,0,0:0:0:0:
64,192,102976,1,0,0:0:0:0:
320,192,103050,1,0,0:0:0:0:
64,192,103125,1,0,0:0:0:0:
192,192,103199,1,0,0:0:0:0:
320,192,103274,1,0,0:0:0:0:
448,192,103274,1,0,0:0:0:0:
64,192,103274,1,0,0:0:0:0:
192,192,103349,1,0,0:0:0:0:
320,192,103423,1,0,0:0:0:0:
448,192,103498,1,0,0:0:0:0:
320,192,103573,1,0,0:0:0:0:
192,192,103573,1,0,0:0:0:0:
64,192,103573,1,0,0:0:0:0:
448,192,103647,1,0,0:0:0:0:
320,192,103722,1,0,0:0:0:0:
64,192,103796,1,0,0:0:0:0:
192,192,103871,1,0,0:0:0:0:
320,192,103871,1,0,0:0:0:0:
448,192,103871,1,0,0:0:0:0:
64,192,103946,1,0,0:0:0:0:
448,192,104020,1,0,0:0:0:0:
192,192,104095,1,0,0:0:0:0:
320,192,104170,1,0,0:0:0:0:
448,192,104170,1,0,0:0:0:0:
64,192,104170,1,0,0:0:0:0:
192,192,104244,1,0,0:0:0:0:
64,192,104319,1,0,0:0:0:0:
320,192,104393,1,0,0:0:0:0:
192,192,104468,1,0,0:0:0:0:
64,192,104468,1,0,0:0:0:0:
448,192,104468,1,0,0:0:0:0:
320,192,104543,1,0,0:0:0:0:
192,192,104617,1,0,0:0:0:0:
64,192,104692,1,0,0:0:0:0:
448,192,104767,1,0,0:0:0:0:
320,192,104767,1,0,0:0:0:0:
192,192,104767,1,0,0:0:0:0:
64,192,104841,1,0,0:0:0:0:
320,192,104916,1,0,0:0:0:0:
192,192,104990,1,0,0:0:0:0:
448,192,105065,1,0,0:0:0:0:
192,192,105140,1,0,0:0:0:0:
64,192,105140,1,0,0:0:0:0:
448,192,105214,1,0,0:0:0:0:
320,192,105289,1,0,0:0:0:0:
192,192,105289,1,0,0:0:0:0:
320,192,105364,1,0,0:0:0:0:
448,192,105364,1,0,0:0:0:0:
64,192,105438,1,0,0:0:0:0:
192,192,105513,1,0,0:0:0:0:
320,192,105513,1,0,0:0:0:0:
64,192,105587,1,0,0:0:0:0:
448,192,105662,1,0,0:0:0:0:
64,192,105737,1,0,0:0:0:0:
192,192,105737,1,0,0:0:0:0:
448,192,105811,1,0,0:0:0:0:
192,192,105886,1,0,0:0:0:0:
320,192,105886,1,0,0:0:0:0:
320,192,105961,1,0,0:0:0:0:
448,192,105961,1,0,0:0:0:0:
64,192,106035,1,0,0:0:0:0:
192,192,106110,1,0,0:0:0:0:
320,192,106110,1,0,0:0:0:0:
64,192,106184,1,0,0:0:0:0:
448,192,106259,1,0,0:0:0:0:
192,192,106334,1,0,0:0:0:0:
64,192,106334,1,0,0:0:0:0:
448,192,106408,1,0,0:0:0:0:
320,192,106483,1,0,0:0:0:0:
192,192,106483,1,0,0:0:0:0:
448,192,106558,1,0,0:0:0:0:
320,192,106558,1,0,0:0:0:0:
64,192,106632,1,0,0:0:0:0:
320,192,106707,1,0,0:0:0:0:
192,192,106707,1,0,0:0:0:0:
64,192,106782,1,0,0:0:0:0:
320,192,106856,1,0,0:0:0:0:
448,192,106856,1,0,0:0:0:0:
64,192,106931,1,0,0:0:0:0:
192,192,106931,1,0,0:0:0:0:
448,192,107005,1,0,0:0:0:0:
192,192,107080,1,0,0:0:0:0:
320,192,107080,1,0,0:0:0:0:
448,192,107155,1,0,0:0:0:0:
64,192,107229,1,0,0:0:0:0:
192,192,107304,1,0,0:0:0:0:
320,192,107304,1,0,0:0:0:0:
64,192,107379,1,0,0:0:0:0:
320,192,107453,128,0,107677:0:0:0:0:
448,192,107453,1,0,0:0:0:0:
192,192,107528,1,0,0:0:0:0:
448,192,107602,1,0,0:0:0:0:
192,192,107677,1,0,0:0:0:0:
192,192,107752,128,0,108050:0:0:0:0:
448,192,107752,1,0,0:0:0:0:
320,192,107826,1,0,0:0:0:0:
64,192,107901,1,0,0:0:0:0:
320,192,107976,1,0,0:0:0:0:
448,192,108050,1,0,0:0:0:0:
64,192,108050,1,0,0:0:0:0:
192,192,108125,1,0,0:0:0:0:
320,192,108125,1,0,0:0:0:0:
448,192,108199,1,0,0:0:0:0:
64,192,108199,1,0,0:0:0:0:
192,192,108274,1,0,0:0:0:0:
320,192,108274,1,0,0:0:0:0:
448,192,108349,1,0,0:0:0:0:
64,192,108349,1,0,0:0:0:0:
320,192,108423,1,0,0:0:0:0:
192,192,108498,1,0,0:0:0:0:
320,192,108573,1,0,0:0:0:0:
448,192,108647,128,0,108871:0:0:0:0:
64,192,108647,1,0,0:0:0:0:
320,192,108722,1,0,0:0:0:0:
64,192,108796,1,0,0:0:0:0:
320,192,108871,1,0,0:0:0:0:
320,192,108946,128,0,109244:0:0:0:0:
64,192,108946,1,0,0:0:0:0:
192,192,109020,1,0,0:0:0:0:
448,192,109095,1,0,0:0:0:0:
192,192,109170,1,0,0:0:0:0:
448,192,109244,1,0,0:0:0:0:
64,192,109244,1,0,0:0:0:0:
192,192,109319,1,0,0:0:0:0:
320,192,109319,1,0,0:0:0:0:
448,192,109393,1,0,0:0:0:0:
64,192,109393,1,0,0:0:0:0:
192,192,109468,1,0,0:0:0:0:
320,192,109468,1,0,0:0:0:0:
448,192,109543,1,0,0:0:0:0:
64,192,109543,1,0,0:0:0:0:
192,192,109617,1,0,0:0:0:0:
320,192,109692,1,0,0:0:0:0:
448,192,109767,1,0,0:0:0:0:
64,192,109841,1,0,0:0:0:0:
320,192,109841,1,0,0:0:0:0:
192,192,109916,1,0,0:0:0:0:
320,192,109990,1,0,0:0:0:0:
448,192,110065,1,0,0:0:0:0:
320,192,110140,1,0,0:0:0:0:
64,192,110140,1,0,0:0:0:0:
448,192,110214,1,0,0:0:0:0:
320,192,110289,1,0,0:0:0:0:
192,192,110364,1,0,0:0:0:0:
448,192,110438,1,0,0:0:0:0:
64,192,110438,1,0,0:0:0:0:
192,192,110513,1,0,0:0:0:0:
320,192,110587,1,0,0:0:0:0:
448,192,110662,1,0,0:0:0:0:
320,192,110737,1,0,0:0:0:0:
64,192,110737,1,0,0:0:0:0:
448,192,110811,1,0,0:0:0:0:
320,192,110886,1,0,0:0:0:0:
192,192,110961,1,0,0:0:0:0:
320,192,111035,1,0,0:0:0:0:
448,192,111035,1,0,0:0:0:0:
320,192,111135,1,0,0:0:0:0:
192,192,111135,1,0,0:0:0:0:
192,192,111234,1,0,0:0:0:0:
64,192,111234,1,0,0:0:0:0:
320,192,111334,1,0,0:0:0:0:
448,192,111334,1,0,0:0:0:0:
192,192,111433,1,0,0:0:0:0:
64,192,111433,1,0,0:0:0:0:
320,192,111533,1,0,0:0:0:0:
448,192,111533,1,0,0:0:0:0:
448,192,111632,1,0,0:0:0:0:
320,192,111632,1,0,0:0:0:0:
320,192,111732,1,0,0:0:0:0:
192,192,111732,1,0,0:0:0:0:
64,192,111831,1,0,0:0:0:0:
192,192,111831,1,0,0:0:0:0:
320,192,111931,1,0,0:0:0:0:
448,192,111931,1,0,0:0:0:0:
64,192,112030,1,0,0:0:0:0:
192,192,112030,1,0,0:0:0:0:
320,192,112130,1,0,0:0:0:0:
448,192,112130,1,0,0:0:0:0:
192,192,112229,128,0,114617:0:0:0:0:
64,192,112229,128,0,114617:0:0:0:0:
448,192,112826,1,0,0:0:0:0:
448,192,114020,1,0,0:0:0:0:
320,192,114617,128,0,117005:0:0:0:0:
448,192,114617,128,0,117005:0:0:0:0:
64,192,115214,1,0,0:0:0:0:
64,192,116408,1,0,0:0:0:0:
192,192,117005,1,0,0:0:0:0:
64,192,117005,1,0,0:0:0:0:
320,192,117155,128,0,117304:0:0:0:0:
448,192,117155,128,0,117901:0:0:0:0:
192,192,117304,1,0,0:0:0:0:
64,192,117379,1,0,0:0:0:0:
192,192,117453,1,0,0:0:0:0:
320,192,117528,1,0,0:0:0:0:
192,192,117602,1,0,0:0:0:0:
64,192,117677,1,0,0:0:0:0:
192,192,117752,1,0,0:0:0:0:
320,192,117826,1,0,0:0:0:0:
192,192,117901,1,0,0:0:0:0:
